#TITLE:Greenday - Green day - American idiot;
#SUBTITLE:;
#ARTIST:Dancing Monkeys Project;
#TITLETRANSLIT:;
#SUBTITLETRANSLIT:;
#ARTISTTRANSLIT:;
#CREDIT:Gorilla v1.1.3 (Dancing Monkeys v1.06);
#BANNER:Banner.jpg;
#BACKGROUND:Background.jpg;
#LYRICSPATH:;
#CDTITLE:;
#MUSIC:Greenday - Green day - American idiot.mp3;
#OFFSET:-0.717;
#SAMPLESTART:32.975;
#SAMPLELENGTH:12.000;
#SELECTABLE:YES;
#BPMS:0.000=185.997;
#STOPS:;
#BGCHANGES:;
// cache tags:
#FIRSTBEAT:10.000;
#LASTBEAT:313.000;
#SONGFILENAME:Songs/nhac/Greenday  Green day  American idiot/Greenday - Green day - American idiot.sm;
#HASMUSIC:1;
#HASBANNER:1;
#MUSICLENGTH:105.098;
// end cache tags

//---------------dance-single - Basic----------------
#NOTES:
     dance-single:
     Basic:
     Easy:
     3:
     0.219,0.223,0.010,0.000,0.000,160.000,1.000,0.000,0.000,0.000:
0000
0000
0000
0000
0000
0000
0000
0000
,
0000
0000
0000
0000
0000
0000
0000
0000
,
0000
0000
0000
0000
0001
0000
0000
0000
,
1000
0000
0000
0000
0001
0000
0000
0000
,
0000
0000
0001
0000
0100
0000
0000
0000
,
1000
0000
0000
0000
0001
0000
0000
0000
,
1000
0000
0000
0000
0000
0000
0100
0000
,
0001
0000
0000
0000
0001
0000
0000
0000
,
0001
0000
1000
0000
0000
0000
0000
0000
,
0001
0000
0010
0000
0000
0000
0000
0000
,
0000
0000
1000
0000
0000
0000
0100
0000
,
1000
0000
0000
0000
0001
0000
0000
0000
,
0000
0000
1000
0000
1000
0000
0000
0000
,
0001
0000
0010
0000
0000
0000
0000
0000
,
0000
0000
1000
0000
0000
0000
0100
0000
,
1000
0000
0000
0000
0001
0000
0000
0000
,
0001
0000
1000
0000
0000
0000
0000
0000
,
0001
0000
0010
0000
0000
0000
0000
0000
,
0000
0000
1000
0000
0000
0000
0100
0000
,
0001
0000
0000
0000
0001
0000
0000
0000
,
0000
0000
1000
0000
1000
0000
0000
0000
,
0001
0000
0010
0000
0000
0000
0000
0000
,
0000
0000
1000
0000
0000
0000
0100
0000
,
1000
0000
0000
0000
0001
0000
0000
0000
,
0000
0000
0000
0000
0001
0000
0100
0000
,
0001
0000
0100
0000
0010
0000
0000
0000
,
0000
0000
0000
0000
1000
0000
0010
0000
,
0001
0000
0100
0000
0010
0000
0000
0000
,
1000
0000
0100
0000
0000
0000
0000
0000
,
1000
0000
0010
0000
0000
0000
0000
0000
,
0000
0000
0001
0000
0010
0000
0110
0000
,
1000
0000
0100
0000
0000
0000
0000
0000
,
0000
0000
0001
0000
0100
0000
0000
0000
,
1000
0000
0010
0000
0000
0000
0000
0000
,
1000
0000
0010
0000
0000
0000
0000
0000
,
1000
0000
0010
0000
1000
0000
0000
0000
,
0001
0000
0100
0000
0000
0000
0010
0000
,
1000
0000
0010
0000
0000
0000
0000
0000
,
1000
0000
0000
0000
0001
0000
0000
0000
,
0000
0000
0000
0000
1000
0000
0001
0000
,
1000
0000
0000
0000
0000
0000
0100
0000
,
1000
0000
0000
0000
0001
0000
0000
0000
,
0000
0000
0001
0000
0100
0000
0000
0000
,
0000
0000
0000
0000
1000
0000
0100
0000
,
0001
0000
1000
0000
0000
0000
0000
0000
,
0001
0000
0010
0000
0000
0000
0000
0000
,
0000
0000
1000
0000
0000
0000
0100
0000
,
1000
0000
0000
0000
0001
0000
0000
0000
,
0000
0000
1000
0000
1000
0000
0000
0000
,
0001
0000
0010
0000
0000
0000
0000
0000
,
0000
0000
1000
0000
0000
0000
0100
0000
,
1000
0000
0000
0000
0001
0000
0000
0000
,
0001
0000
1000
0000
0000
0000
0000
0000
,
0000
0000
0001
0000
0000
0000
0001
0000
,
1000
0000
0000
0000
0000
0000
0010
0000
,
1000
0000
0000
0000
0001
0000
0000
0000
,
0000
0000
1000
0000
1000
0000
0000
0000
,
1000
0000
0010
0000
1000
0000
0000
0000
,
1000
0000
0000
0000
0000
0000
0100
0000
,
1000
0000
0000
0000
0001
0000
0000
0000
,
0000
0000
0000
0000
1000
0000
0010
0000
,
1000
0000
0010
0000
0000
0000
0000
0000
,
0000
0000
0000
0000
1000
0000
0010
0000
,
0001
0000
0100
0000
0010
0000
0000
0000
,
1000
0000
0100
0000
0000
0000
0000
0000
,
1000
0000
0010
0000
0000
0000
0000
0000
,
0000
0000
0000
0000
0001
0000
0010
0000
,
0001
0000
0010
0000
0000
0000
0000
0000
,
1000
0000
0100
0000
0000
0000
0000
0000
,
1000
0000
0010
0000
0000
0000
0000
0000
,
0000
0000
0000
0000
1000
0000
0010
0000
,
0001
0000
0100
0000
0010
0000
0000
0000
,
0000
0000
1000
0000
1000
0000
0001
0000
,
1000
0000
0010
0000
0000
0000
0000
0000
,
1000
0000
0000
0000
0001
0000
0000
0000
,
1000
0000
0000
0000
0001
0000
0000
0000
,
1000
0000
0000
0000
0000
0000
0100
0000
,
1000
0000
0000
0000
0000
0000
0000
0000
,
0000
0000
0001
0000
0000
0000
0000
0000
,
0000
0000
0000
0000
0000
0000
0000
0000
,;

//---------------dance-single - Standard----------------
#NOTES:
     dance-single:
     Standard:
     Medium:
     5:
     0.313,0.335,0.029,0.000,0.000,227.000,3.000,0.000,0.000,0.000:
0000
0000
0000
0000
0000
0000
0000
0000
,
0000
0000
0000
0000
0000
0000
0000
0000
,
0000
0000
0000
0000
1000
0000
1000
0000
,
1000
0000
0000
0000
0100
0000
0001
0000
,
0000
0000
0001
0000
0010
0000
0100
0000
,
1000
0000
0000
0000
0100
0000
0001
0000
,
1000
0000
0010
0000
0000
0000
1000
0000
,
0001
0000
0000
0000
0001
0000
0000
0000
,
1000
0000
0010
0000
0000
0000
0000
0000
,
0001
0000
0010
0000
0000
0000
0000
0000
,
1000
0000
0100
0000
0000
0000
1000
0000
,
1000
0000
0000
0000
0100
0000
0001
0000
,
1000
0000
0010
0000
0010
0000
0000
0000
,
0001
0000
0010
0000
0000
0000
0000
0000
,
1000
0000
0100
0000
0000
0000
1000
0000
,
1000
0000
0000
0000
0100
0000
0001
0000
,
1000
0000
0010
0000
0000
0000
0000
0000
,
0001
0000
0010
0000
0000
0000
0000
0000
,
1000
0000
0100
0000
0000
0000
1000
0000
,
0001
0000
0000
0000
0001
0000
0000
0000
,
1000
0000
0010
0000
0010
0000
0000
0000
,
0001
0000
0010
0000
0000
0000
0000
0000
,
1000
0000
0100
0000
0000
0000
1000
0000
,
1000
0000
0000
0000
0100
0000
0001
0000
,
0000
0000
1000
0000
0100
0000
1000
0000
,
1000
0000
0001
0000
0010
0000
0001
0000
,
0000
0000
0001
0000
0010
0000
0001
0000
,
1000
0000
0001
0000
0010
0000
0001
0000
,
0001
0000
0100
0000
0001
0000
0100
0000
,
0001
0000
1000
0000
0010
0000
0000
0000
,
0001
0000
0001
0000
0100
0000
0101
0000
,
0001
0000
0100
0000
0001
0000
0100
0000
,
0000
0000
0001
0000
0010
0000
0100
0000
,
0001
0000
1000
0000
0010
0000
0000
0000
,
1000
0000
0001
0000
0100
0000
0000
0000
,
0001
0000
1000
0000
0010
0000
1000
0000
,
1001
0000
1000
0000
0100
0000
0010
0000
,
0001
0000
1000
0000
0010
0000
0000
0000
,
1000
0000
0000
0000
0010
0001
0000
0000
,
1000
0000
0000
0000
0010
0000
1000
0000
,
1000
0000
0010
0000
0000
0000
1000
0000
,
1000
0000
0000
0000
0100
0000
0001
0000
,
0000
0000
0001
0000
0010
0000
0100
0000
,
0000
0000
0000
0000
1000
0010
0100
0000
,
1000
0000
0010
0000
0000
0000
0000
0000
,
0001
0000
0010
0000
0000
0000
0000
0000
,
1000
0000
0100
0000
0000
0000
1000
0000
,
1000
0000
0000
0000
0100
0000
0001
0000
,
1000
0000
0010
0000
0010
0000
0000
0000
,
0001
0000
0010
0000
0000
0000
0000
0000
,
1000
0000
0100
0000
0000
0000
1000
0000
,
1000
0000
0000
0000
0100
0000
0001
0000
,
1000
0000
0010
0000
0000
0000
0000
0000
,
0000
0000
1000
0000
0100
0000
0100
0000
,
0001
0000
0000
0000
0100
0000
0010
0000
,
1000
0000
0000
0000
0100
0000
0001
0000
,
1000
0000
0010
0000
0010
0000
0000
0000
,
1000
0000
0100
0000
0010
0000
0000
0000
,
1000
0000
0010
0000
0000
0000
1000
0000
,
1000
0000
0000
0000
0100
0000
0001
0000
,
0000
0000
0001
0000
0010
0000
0001
0000
,
0001
0000
1000
0000
0010
0000
0000
0000
,
0000
0000
0001
0000
0010
0000
0001
0000
,
1000
0000
0001
0000
0010
0000
0001
0000
,
0001
0000
0100
0000
0001
0000
0100
0000
,
0001
0000
1000
0000
0010
0000
0000
0000
,
1000
0000
0000
0000
0010
0000
0100
0000
,
1000
0000
1010
0000
1000
0000
0100
0000
,
0001
0000
0100
0000
0001
0000
0100
0000
,
0001
0000
1000
0000
0010
0000
0000
0000
,
0000
0000
0001
0000
0010
0000
0001
0000
,
1000
0000
0001
0000
0010
0000
0001
0000
,
0001
0000
0010
0000
0010
0000
0100
0000
,
0001
0000
1000
0000
0010
0000
0000
0000
,
1000
0000
0000
0000
0010
0001
0000
0000
,
0001
0000
0000
0000
0010
0000
0000
0000
,
1000
0000
0010
0000
0000
0000
1000
0000
,
1000
0000
0000
0000
0100
0000
0000
0000
,
0000
0000
1000
0000
0000
0000
0000
0000
,
0000
0000
0000
0000
0000
0000
0000
0000
,;

//---------------dance-single - Heavy----------------
#NOTES:
     dance-single:
     Heavy:
     Hard:
     7:
     0.409,0.447,0.076,0.000,0.000,293.000,8.000,0.000,0.000,0.000:
0000
0000
0000
0000
0000
0000
0000
0000
,
0000
0000
0000
0000
0000
0000
0000
0000
,
0000
0000
0000
0000
0101
0000
1000
0010
,
1000
0000
0000
0000
0100
0000
1000
0001
,
1000
0000
0101
0000
1000
0000
0001
0000
,
1000
0000
0000
0000
0100
0000
1000
0001
,
0001
0000
1000
0000
0010
0000
1000
0000
,
1000
0000
0000
0001
0001
0000
0000
0000
,
0001
0000
0010
0000
0100
0000
0000
0000
,
0001
0000
0010
0000
0001
0000
0000
0000
,
0001
0000
0100
0000
0000
0000
0010
0000
,
1000
0000
0000
0000
0100
0000
1000
0001
,
0001
0000
1000
0001
0001
0000
0000
0000
,
0001
0000
0010
0000
0001
0000
0000
0000
,
0001
0000
0100
0000
0000
0000
0010
0000
,
1000
0000
0000
0000
0100
0000
1000
0001
,
0001
0000
0010
0000
0100
0000
0000
0000
,
0001
0000
0010
0000
0001
0000
0000
0000
,
0001
0000
0100
0000
0000
0000
0010
0000
,
1000
0000
0000
0001
0001
0000
0000
0000
,
0001
0000
1000
0001
0001
0000
0000
0000
,
0001
0000
0010
0000
0001
0000
0000
0000
,
0001
0000
0100
0000
0000
0000
0010
0000
,
1000
0000
0000
0000
0100
0000
1000
0001
,
0000
0000
0001
0000
1000
0000
0001
1000
,
0001
0000
0010
0000
0001
1000
0001
0000
,
0001
0000
0100
0000
0001
0000
0100
0000
,
0001
0000
0010
0000
0001
1000
0001
0000
,
0001
0000
0100
0010
0100
0000
0010
0000
,
0001
0000
0010
0000
0100
0000
0000
1000
,
1000
0000
1000
0001
0100
0000
1100
0000
,
0001
0000
0100
0010
0100
0000
0010
0000
,
1000
0000
0101
0000
1000
0000
0001
0000
,
0001
0000
0010
0000
0100
0000
0000
1000
,
1000
0000
0010
0000
0100
0000
0000
0000
,
1100
0000
0001
0000
0100
0001
0000
0000
,
1100
0000
1000
0100
1000
0000
0001
0000
,
0001
0000
0010
0000
0100
0000
0000
1000
,
0001
0010
0000
0000
0001
1000
0000
0000
,
0001
0000
0001
0000
1000
0000
0001
0000
,
0001
0000
1000
0000
0010
0000
1000
0000
,
1000
0000
0000
0000
0100
0000
1000
0001
,
1000
0000
0101
0000
1000
0000
0001
0000
,
0000
0000
0000
0000
1000
0100
0010
0001
,
0001
0000
0010
0000
0100
0000
0000
0000
,
0001
0000
0010
0000
0001
0000
0000
0000
,
0001
0000
0100
0000
0000
0000
0010
0000
,
1000
0000
0000
0000
0100
0000
1000
0001
,
0001
0000
1000
0001
0001
0000
0000
0000
,
0001
0000
0010
0000
0001
0000
0000
0000
,
0001
0000
0100
0000
0000
0000
0010
0000
,
1000
0000
0000
0000
0100
0000
1000
0001
,
0001
0000
0010
0000
0100
0000
0000
0000
,
0000
0000
0001
0000
0010
0000
0010
0000
,
1000
0000
0000
0000
0010
0000
1000
0010
,
1000
0000
0000
0000
0100
0000
1000
0001
,
0001
0000
1000
0001
0001
0000
0000
0000
,
1000
0000
0001
0000
0010
0000
0001
0000
,
0001
0000
1000
0000
0010
0000
1000
0000
,
1000
0000
0000
0000
0100
0000
1000
0001
,
0001
0000
0100
0000
0001
0000
0100
0000
,
0001
0000
0010
0000
0100
0000
0000
1000
,
0001
0000
0100
0000
0001
0000
0100
0000
,
0001
0000
0010
0000
0001
1000
0001
0000
,
0001
0000
0100
0010
0100
0000
0010
0000
,
0001
0000
0010
0000
0100
0000
0000
1000
,
0001
1000
0000
0001
0100
0000
1000
0000
,
1000
0000
0101
0000
0001
0000
0000
0000
,
0001
0000
0100
0010
0100
0000
0010
0000
,
0001
0000
0010
0000
0100
0000
0000
1000
,
0001
0000
0100
0000
0001
0000
0100
0000
,
0001
0000
0010
0000
0001
1000
0001
0000
,
1000
0000
0100
0010
0010
0000
0001
0000
,
0001
0000
0010
0000
0100
0000
0000
1000
,
0001
0010
0000
0000
0001
1000
0000
0000
,
1000
0000
0000
0100
1000
0000
0000
0000
,
0001
0000
1000
0000
0010
0000
1000
0000
,
1000
0000
0000
0010
1000
0000
0000
0000
,
0000
0000
0001
0000
0000
0000
0000
0000
,
0000
0000
0000
0000
0000
0000
0000
0000
,
;
